[ОТВЕТИТЬ]
Опции темы
09.01.2014 09:26  
OlegON
В общем, засада. Часть фильмов на ТВ (Panasonic) не воспроизводится. DLNA, запускаешь фильм - изображение замирает на некоторое время, отображая один кадр в 20 сек, звук идет нормально. Вот в данный момент есть несколько файлов, оба
Codec: H264 - MPEG-4 AVC (part 10) (avc1)
один на 4Гб, другой на 10Гб. Не играется меньший.
Есть идеи, как если не вылечить проблему, то хотя бы понять, что он не воспроизводит? Бывает, сядешь, расслабишься и на тебе...
На компе воспроизводятся все тестируемые файлы...
 
09.01.2014 10:02  
KirillHome
Покажи информацию бы с MediaInfo - может что-то увидим.
 
"Спасибо" KirillHome от:
09.01.2014 10:44  
OlegON
прикольная софтинка, спасибо, я-то avinfo пользовался и в VLC смотрел...

который не играется
Цитата:
General
Unique ID : 242723760868207283495852839847570122339 (0xB69AE55B796A4F28A52790E438F32663)
Complete name : Film.mkv
Format : Matroska
Format version : Version 4 / Version 2
File size : 4.36 GiB
Duration : 1h 51mn
Overall bit rate : 5 603 Kbps
Encoded date : UTC 2013-07-06 06:44:09
Writing application : mkvmerge v6.3.0 ('You can't stop me!') built on Jun 28 2013 20:09:41
Writing library : libebml v1.3.0 + libmatroska v1.4.0

Video
ID : 1
Format : AVC
Format/Info : Advanced Video Codec
Format profile : High@L4.1
Format settings, CABAC : Yes
Format settings, ReFrames : 10 frames
Codec ID : V_MPEG4/ISO/AVC
Duration : 1h 51mn
Bit rate : 5 160 Kbps
Width : 1 280 pixels
Height : 544 pixels
Display aspect ratio : 2.35:1
Frame rate mode : Constant
Frame rate : 23.976 fps
Color space : YUV
Chroma subsampling : 4:2:0
Bit depth : 8 bits
Scan type : Progressive
Bits/(Pixel*Frame) : 0.309
Stream size : 3.93 GiB (90%)
Writing library : x264 core 133 r2334 a3ac64b
Encoding settings : cabac=1 / ref=10 / deblock=1:0:0 / analyse=0x3:0x113 / me=umh / subme=10 / psy=1 / psy_rd=1.00:0.10 / mixed_ref=1 / me_range=32 / chroma_me=1 / trellis=2 / 8x8dct=1 / cqm=0 / deadzone=21,11 / fast_pskip=0 / chroma_qp_offset=-3 / threads=2 / lookahead_threads=1 / sliced_threads=0 / nr=0 / decimate=0 / interlaced=0 / bluray_compat=0 / constrained_intra=0 / bframes=10 / b_pyramid=2 / b_adapt=2 / b_bias=0 / direct=3 / weightb=1 / open_gop=0 / weightp=2 / keyint=240 / keyint_min=23 / scenecut=40 / intra_refresh=0 / rc_lookahead=40 / rc=2pass / mbtree=0 / bitrate=5160 / ratetol=1.0 / qcomp=0.60 / qpmin=0 / qpmax=69 / qpstep=4 / cplxblur=20.0 / qblur=0.5 / vbv_maxrate=50000 / vbv_bufsize=62500 / nal_hrd=none / ip_ratio=1.40 / pb_ratio=1.30 / aq=1:0.80
Language : English
Default : Yes
Forced : No

Audio
ID : 2
Format : AC-3
Format/Info : Audio Coding 3
Mode extension : CM (complete main)
Format settings, Endianness : Big
Codec ID : A_AC3
Duration : 1h 51mn
Bit rate mode : Constant
Bit rate : 448 Kbps
Channel count : 6 channels
Channel positions : Front: L C R, Side: L R, LFE
Sampling rate : 48.0 KHz
Bit depth : 16 bits
Compression mode : Lossy
Stream size : 357 MiB (8%)
Title : Russian
Language : Russian
Default : Yes
Forced : No

Menu
00:00:00.000 : :Chapter 01
00:06:30.972 : :Chapter 02
00:11:12.671 : :Chapter 03
00:15:40.647 : :Chapter 04
00:24:00.188 : :Chapter 05
00:27:59.469 : :Chapter 06
00:34:22.685 : :Chapter 07
00:40:19.917 : :Chapter 08
00:44:22.534 : :Chapter 09
00:49:59.411 : :Chapter 10
00:54:34.813 : :Chapter 11
01:01:07.455 : :Chapter 12
01:05:34.013 : :Chapter 13
01:09:20.113 : :Chapter 14
01:14:46.773 : :Chapter 15
01:21:15.412 : :Chapter 16
01:28:15.997 : :Chapter 17
01:34:34.585 : :Chapter 18
01:40:49.835 : :Chapter 19
01:47:19.015 : :Chapter 20
который играется (тот же фильм)
Цитата:
General
Unique ID : 210214933974196776034911417287763628592 (0x9E25EC71B19A5B8993437EBA03951230)
Complete name : Film.mkv
Format : Matroska
Format version : Version 4 / Version 2
File size : 10.7 GiB
Duration : 1h 51mn
Overall bit rate : 13.8 Mbps
Movie name : Film
Encoded date : UTC 2013-07-07 08:58:56
Writing application : mkvmerge v6.2.0 ('Promised Land') built on Apr 28 2013 12:22:01
Writing library : libebml v1.3.0 + libmatroska v1.4.0

Video
ID : 1
Format : AVC
Format/Info : Advanced Video Codec
Format profile : High@L4.1
Format settings, CABAC : Yes
Format settings, ReFrames : 5 frames
Codec ID : V_MPEG4/ISO/AVC
Duration : 1h 51mn
Bit rate : 12.5 Mbps
Width : 1 920 pixels
Height : 816 pixels
Display aspect ratio : 2.35:1
Frame rate mode : Constant
Frame rate : 23.976 fps
Color space : YUV
Chroma subsampling : 4:2:0
Bit depth : 8 bits
Scan type : Progressive
Bits/(Pixel*Frame) : 0.333
Stream size : 9.52 GiB (89%)
Title : Film
Writing library : x264 core 133 r2334 a3ac64b
Encoding settings : cabac=1 / ref=5 / deblock=1:-3:-3 / analyse=0x3:0x133 / me=tesa / subme=11 / psy=1 / psy_rd=1.10:0.00 / mixed_ref=1 / me_range=24 / chroma_me=1 / trellis=2 / 8x8dct=1 / cqm=0 / deadzone=21,11 / fast_pskip=1 / chroma_qp_offset=-2 / threads=12 / lookahead_threads=2 / sliced_threads=0 / nr=0 / decimate=1 / interlaced=0 / bluray_compat=0 / constrained_intra=0 / bframes=8 / b_pyramid=2 / b_adapt=2 / b_bias=0 / direct=3 / weightb=1 / open_gop=0 / weightp=2 / keyint=240 / keyint_min=23 / scenecut=40 / intra_refresh=0 / rc_lookahead=60 / rc=2pass / mbtree=0 / bitrate=12500 / ratetol=1.0 / qcomp=0.60 / qpmin=0 / qpmax=69 / qpstep=4 / cplxblur=20.0 / qblur=0.5 / vbv_maxrate=60000 / vbv_bufsize=60000 / nal_hrd=none / ip_ratio=1.40 / pb_ratio=1.30 / aq=2:0.60
Language : English
Default : Yes
Forced : No

Audio #1
ID : 2
Format : AC-3
Format/Info : Audio Coding 3
Mode extension : CM (complete main)
Format settings, Endianness : Big
Codec ID : A_AC3
Duration : 1h 51mn
Bit rate mode : Constant
Bit rate : 640 Kbps
Channel count : 6 channels
Channel positions : Front: L C R, Side: L R, LFE
Sampling rate : 48.0 KHz
Bit depth : 16 bits
Compression mode : Lossy
Stream size : 510 MiB (5%)
Title : AC3 / 5.1 ch / 640 kbps / Русский дубляж, BD CEE
Language : Russian
Default : Yes
Forced : No

Audio #2
ID : 3
Format : AC-3
Format/Info : Audio Coding 3
Mode extension : CM (complete main)
Format settings, Endianness : Big
Codec ID : A_AC3
Duration : 1h 51mn
Bit rate mode : Constant
Bit rate : 640 Kbps
Channel count : 6 channels
Channel positions : Front: L C R, Side: L R, LFE
Sampling rate : 48.0 KHz
Bit depth : 16 bits
Compression mode : Lossy
Stream size : 510 MiB (5%)
Title : AC3 / 5.1 ch / 640 kbps / Украинский дубляж, BD CEE
Language : English
Default : No
Forced : No

Text #1
ID : 4
Format : UTF-8
Codec ID : S_TEXT/UTF8
Codec ID/Info : UTF-8 Plain Text
Title : Forced, BD CEE
Language : Russian
Default : Yes
Forced : No

Text #2
ID : 5
Format : UTF-8
Codec ID : S_TEXT/UTF8
Codec ID/Info : UTF-8 Plain Text
Title : Full, BD CEE
Language : Russian
Default : No
Forced : No

Text #3
ID : 6
Format : UTF-8
Codec ID : S_TEXT/UTF8
Codec ID/Info : UTF-8 Plain Text
Title : SDH, BD CEE
Language : English
Default : No
Forced : No

Menu
00:00:00.000 : :Chapter 01
00:06:30.973 : :Chapter 02
00:11:12.672 : :Chapter 03
00:15:40.648 : :Chapter 04
00:24:00.188 : :Chapter 05
00:27:59.469 : :Chapter 06
00:34:22.685 : :Chapter 07
00:40:19.917 : :Chapter 08
00:44:22.534 : :Chapter 09
00:49:59.413 : :Chapter 10
00:54:34.813 : :Chapter 11
01:01:07.455 : :Chapter 12
01:05:34.013 : :Chapter 13
01:09:20.114 : :Chapter 14
01:14:46.773 : :Chapter 15
01:21:15.412 : :Chapter 16
01:28:15.999 : :Chapter 17
01:34:34.585 : :Chapter 18
01:40:49.835 : :Chapter 19
01:47:19.015 : :Chapter 20
 
09.01.2014 10:50  
termit68ru
Цитата:
Format settings, ReFrames : 10 frames
Цитата:
Format settings, ReFrames : 5 frames
Цитата:
...меня тоже интересует, на какой параметр необходимо смотреть перед скачиванием фильма, ибо одни идут отлично в супер качестве, другие тормозят...
В случае видео, закодированного кодеком AVC, важнейших параметров два — Format profile и ReFrames. Для BD-рипов в FullHD (1080p) MediaInfo должно нарисовать примерно такую картину:
.....
Format : AVC
Format/Info : Advanced Video Codec
Format profile : High@L4.1 (всё, что выше 4.1, не пойдёт!)
Format settings, CABAC : Yes
Format settings, ReFrames : 5 frames (5 фреймов — предел, на 6-ти начинаются тормоза)
Codec ID : V_MPEG4/ISO/AVC
.....
На прошлой неделе специально отобрал и перекинул с компа на внешний сигейтовский терабайтник 8 фильмов с указаннами параметрами. Проверил на своём 42ET5: все восемь пошли «на ура», без тормозов и заиканий. В том числе 20-гигабайтный «Облачный атлас», например...

P.S. Для фильмов HD (720p) параметр ReFrames, как уже писали выше, может быть увеличен, вплоть до 9–12 кадров.
Как то так
 
"Спасибо" termit68ru от:
09.01.2014 11:09  
OlegON
Посмотрел еще один неиграющийся - 6 фреймов :( Даже 20Гб-фильм с 60fps с 4 фреймами играет нормально. Кажется, да, в этом дело.
 
09.01.2014 11:12  
termit68ru
У меня лыжа берёт 40 литровых трансформеров,но может не взять 10 литровый фильм из-за этих фреймов.Поэтому и хочу прицепить нормальный плеер.
 
10.01.2014 15:56  
OlegON
Нашел еще один фильм, 8 frames и играет нормально... Ниччего не понимаю...

Цитата:
General
Unique ID : 235441333266255024791521322767512673516 (0xB12059F496FA5D0BB6B69D8E46E69CEC)
Complete name : Film.mkv
Format : Matroska
Format version : Version 2
File size : 3.97 GiB
Duration : 2h 10mn
Overall bit rate : 4 344 Kbps
Movie name : Film
Encoded date : UTC 2013-09-20 04:11:30
Writing application : mkvmerge v6.4.1 ('Omega Point') built on Sep 16 2013 22:05:10
Writing library : libebml v1.3.0 + libmatroska v1.4.1

Video
ID : 1
Format : AVC
Format/Info : Advanced Video Codec
Format profile : High@L4.1
Format settings, CABAC : Yes
Format settings, ReFrames : 8 frames
Codec ID : V_MPEG4/ISO/AVC
Duration : 2h 10mn
Bit rate : 2 978 Kbps
Width : 1 280 pixels
Height : 536 pixels
Display aspect ratio : 2.40:1
Frame rate mode : Constant
Frame rate : 24.000 fps
Color space : YUV
Chroma subsampling : 4:2:0
Bit depth : 8 bits
Scan type : Progressive
Bits/(Pixel*Frame) : 0.181
Stream size : 2.72 GiB (69%)
Title : Vaippp @ 3061.96 Kbps
Writing library : x264 core 138 r2358 9e941d1
Encoding settings : cabac=1 / ref=8 / deblock=1:-3:-3 / analyse=0x3:0x133 / me=tesa / subme=11 / psy=1 / psy_rd=1.15:0.00 / mixed_ref=1 / me_range=24 / chroma_me=1 / trellis=2 / 8x8dct=1 / cqm=0 / deadzone=21,11 / fast_pskip=1 / chroma_qp_offset=-2 / threads=12 / lookahead_threads=2 / sliced_threads=0 / nr=0 / decimate=1 / interlaced=0 / bluray_compat=0 / constrained_intra=0 / bframes=8 / b_pyramid=2 / b_adapt=2 / b_bias=0 / direct=1 / weightb=1 / open_gop=0 / weightp=2 / keyint=240 / keyint_min=22 / scenecut=40 / intra_refresh=0 / rc_lookahead=60 / rc=crf / mbtree=0 / crf=16.8 / qcomp=0.80 / qpmin=0 / qpmax=69 / qpstep=4 / vbv_maxrate=62500 / vbv_bufsize=78125 / crf_max=0.0 / nal_hrd=none / ip_ratio=1.38 / pb_ratio=1.27 / aq=1:0.90
Language : Italian
Default : Yes
Forced : No
Color primaries : BT.709
Transfer characteristics : BT.709
Matrix coefficients : BT.709

Audio #1
ID : 2
Format : AC-3
Format/Info : Audio Coding 3
Mode extension : CM (complete main)
Format settings, Endianness : Big
Codec ID : A_AC3
Duration : 2h 10mn
Bit rate mode : Constant
Bit rate : 640 Kbps
Channel count : 6 channels
Channel positions : Front: L C R, Side: L R, LFE
Sampling rate : 48.0 KHz
Bit depth : 16 bits
Compression mode : Lossy
Stream size : 600 MiB (15%)
Title : AC3 DD 5.1 @ 640 kbps DUB - Blu-Ray RUS
Language : Russian
Default : Yes
Forced : Yes

Audio #2
ID : 3
Format : AC-3
Format/Info : Audio Coding 3
Mode extension : CM (complete main)
Format settings, Endianness : Big
Codec ID : A_AC3
Duration : 2h 10mn
Bit rate mode : Constant
Bit rate : 640 Kbps
Channel count : 6 channels
Channel positions : Front: L C R, Side: L R, LFE
Sampling rate : 48.0 KHz
Bit depth : 16 bits
Compression mode : Lossy
Stream size : 600 MiB (15%)
Title : AC3 DD 5.1 @ 640 Kbps - Blu-Ray ITA
Language : English
Default : No
Forced : No

Text #1
ID : 4
Format : UTF-8
Codec ID : S_TEXT/UTF8
Codec ID/Info : UTF-8 Plain Text
Language : Russian
Default : No
Forced : No

Text #2
ID : 5
Format : UTF-8
Codec ID : S_TEXT/UTF8
Codec ID/Info : UTF-8 Plain Text
Language : Italian
Default : No
Forced : No

Menu
00:00:00.000 : en:Chapter 01
00:00:25.750 : en:Chapter 02
00:09:46.208 : en:Chapter 03
00:20:07.250 : en:Chapter 04
00:38:36.458 : en:Chapter 05
00:51:22.541 : en:Chapter 06
01:16:23.583 : en:Chapter 07
01:34:46.583 : en:Chapter 08
01:53:21.666 : en:Chapter 09
 
10.01.2014 16:23  
KirillHome
параметр ref, имел бы значение не выше 5 для 10801080p/i и не выше 9 для 720p. Если будут выше, то тоже могут быть проблемы.

В первом случае - фильм на 720p (Width : 1 280 pixels; Height : 544 pixels)
Format settings, ReFrames : 10 frames
Не играет


Во втором случае - фильм на 1080 (Width : 1 920 pixels; Height : 816 pixels)
Format settings, ReFrames : 5 frames
Играет

В третьем случае - фильм на 720p (Width : 1 280 pixels; Height : 536 pixels)
Format settings, ReFrames : 9 frames
Играет

Вроде всё сходится?
 
"Спасибо" KirillHome от:
10.01.2014 16:57  
OlegON
Да, я не связал их с разрешением... Спасибо.
 
19.07.2014 08:59  
OlegON
Что-то таких стало попадаться все больше :(
 
 


Опции темы



Часовой пояс GMT +3, время: 14:39.

Все в прочитанное - Календарь - RSS - - Карта - Вверх 👫 Яндекс.Метрика
Форум сделан на основе vBulletin®
Copyright ©2000 - 2016, Jelsoft Enterprises Ltd. Перевод: zCarot и OlegON
В случае заимствования информации гипертекстовая индексируемая ссылка на Форум обязательна.